?找回密码
?立即注册
搜索
查看: 128|回复: 1
打印 上一主题 下一主题

[美剧] [越狱 S01-S05][全5季][1080p.AMZN.WEBRip.DDP5.1.x265-SiGMA]

[复制链接]

8万

主题

8万

帖子

8万

积分

论坛元老

Rank: 8Rank: 8

积分
83387
跳转到指定楼层
楼主
发表于 2018-11-27 04:45:13 | 只看该作者 回帖奖励 |倒序浏览 |阅读模式

◎译  名 越狱 第一季 / 越狱第一季:破茧狂龙
◎片  名 Prison Break Season 1
◎年  代 2005
◎产  地 美国
◎类  别 剧情 / 动作 / 惊悚 / 犯罪
◎语  言 英语 / 西班牙语
◎上映日期 2005-09-01(美国)
◎IMDb评分 8.4/10 from 417119 users
◎IMDb链接 http://www.imdb.com/title/tt0455275
◎豆瓣评分 9.3/10 from 137347 users
◎豆瓣链接 https://movie.douban.com/subject/1419297/
◎集  数 22
◎片  长 42分钟
◎导  演 布莱特·拉特纳 Brett Ratner
◎编  剧 Paul Scheuring
◎主  演 文特沃斯·米勒 Wentworth Miller
      多米尼克·珀塞尔 Dominic Purcell
      彼得·斯特曼 Peter Stormare
      阿莫里·诺拉斯科 Amaury Nolasco
      罗宾·汤尼 Robin Tunney
      马歇尔·奥尔曼 Marshall Allman
      韦德·威廉姆斯 Wade Williams
      迈克尔·拉帕波特 Michael Rapaport
      罗伯特·克耐普 Robert Knepper
      莎拉·韦恩·卡丽丝 Sarah Wayne Callies
      乔迪·琳·欧基菲 Jodi Lyn O'Keefe
◎标  签 美剧 | 越狱 | 悬疑 | 美国 | 电视剧 | 剧情 | Prison | 犯罪
◎简  介??
  麦克(文特沃斯?米勒 Wentworth Miller 饰)和哥哥林肯(多米尼克?珀塞尔 Dominic Purcell 饰)自从母亲去世、父亲失踪后就相依为命。林肯虽然是个街头混混,但他为了弟弟能顺利完成学业,出人头地,瞒着他向高利贷借了9万美金,骗迈克说那是母亲的保 险。迈克凭着这笔钱顺利成为了一名建筑结构工程师,并踏入了上流社会。而林肯为了还高利贷,无奈之下答应了一名陌生男子的要求,去枪杀一个人。当林肯按照计划来到停车场时,发现他的目标已经中枪死亡了,慌乱之下林肯跑回了家。警察很快就在林肯家里捉住了他,无辜的林肯这时才发现一切证据都指向自己。麦克终于在好友那里得知了哥哥为自己所做的一切,他十分后悔当时自己对哥哥的傲慢,经过调查,麦克相信哥哥是被人陷害的,而陷害他的可能牵涉到幕后的政府高官!眼看各种办法都无法帮哥哥洗脱罪名,麦克记起自己以前曾经接过关押林肯的狐狸河监狱的改造工程,他有那里的整套图纸,于是,麦克通过一年时间的精心准备后,故意犯案进入了狐狸河监狱,他要凭借自己的力量将被判了死刑的林肯顺利救走……
◎获奖情况??
  第63届金球奖(2006)
  电视类 最佳剧情类剧集(提名)
  电视类 剧情类剧集最佳男主角(提名) 温特沃斯·米勒


Video
ID : 1
Format : HEVC
Format/Info : High Efficiency Video Coding
Format profile : Main@L4@Main
Codec ID : V_MPEGH/ISO/HEVC
Duration : 43 min 56 s
Bit rate : 8 848 kb/s
Width : 1 920 pixels
Height : 1 080 pixels
Display aspect ratio : 16:9
Frame rate mode : Constant
Frame rate : 23.976 (24000/1001) FPS
Standard : NTSC
Color space : YUV
Chroma subsampling : 4:2:0
Bit depth : 8 bits
Bits/(Pixel*Frame) : 0.178
Stream size : 2.72 GiB (93%)
Writing library : x265 0.0:[Linux][GCC 4.8.2][64 bit] 8bit+10bit+12bit
Encoding settings : cpuid=1173503 / frame-threads=1 / wpp / no-pmode / no-pme / psnr / ssim / log-level=2 / csvfn=/apollo/env/YoshiEncodingWorkflowActivitiesLinuxEncoding/var/tmp/1641257018/77738f74-c217-4c26-a309-cef2857d6e8d/bd0ee4fd-fb64-40d1-b819-ad778d00e72f_video_1080p_9000kbps.csv / csv-log-level=2 / input-csp=1 / input-res=1920x1080 / interlace=0 / total-frames=0 / level-idc=40 / high-tier=1 / uhd-bd=0 / ref=5 / no-allow-non-conformance / no-repeat-headers / annexb / no-aud / no-hrd / info / hash=0 / no-temporal-layers / no-open-gop / min-keyint=61 / keyint=120 / bframes=5 / b-adapt=2 / b-pyramid / bframe-bias=0 / rc-lookahead=120 / lookahead-slices=0 / scenecut=0 / no-intra-refresh / ctu=64 / min-cu-size=8 / rect / no-amp / max-tu-size=32 / tu-inter-depth=1 / tu-intra-depth=1 / limit-tu=0 / rdoq-level=2 / dynamic-rd=0.00 / no-ssim-rd / signhide / no-tskip / nr-intra=0 / nr-inter=200 / no-constrained-intra / strong-intra-smoothing / max-merge=3 / limit-refs=3 / limit-modes / me=3 / subme=3 / merange=57 / temporal-mvp / weightp / no-weightb / no-analyze-src-pics / deblock=0:0 / sao / no-sao-non-deblock / rd=4 / no-early-skip / rskip / no-fast-intra / no-tskip-fast / no-cu-lossless / no-b-intra / rdpenalty=0 / psy-rd=2.00 / psy-rdoq=1.00 / no-rd-refine / analysis-reuse-mode=0 / no-lossless / cbqpoffs=0 / crqpoffs=0 / rc=crf / crf=21.5 / qcomp=0.60 / qpstep=4 / stats-write=0 / stats-read=0 / vbv-maxrate=9000 / vbv-bufsize=12000 / vbv-init=0.9 / crf-max=0.0 / crf-min=0.0 / ipratio=1.40 / pbratio=1.30 / aq-mode=3 / aq-strength=2.00 / cutree / zone-count=0 / no-strict-cbr / qg-size=32 / no-rc-grain / qpmax=69 / qpmin=0 / no-const-vbv / sar=1 / overscan=0 / videoformat=2 / range=0 / colorprim=1 / transfer=1 / colormatrix=1 / chromaloc=0 / display-window=0 / max-cll=0,0 / min-luma=0 / max-luma=255 / log2-max-poc-lsb=8 / vui-timing-info / vui-hrd-info / slices=1 / opt-qp-pps / opt-ref-list-length-pps / no-multi-pass-opt-rps / scenecut-bias=0.05 / no-opt-cu-delta-qp / no-aq-motion / no-hdr / no-hdr-opt / no-dhdr10-opt / analysis-reuse-level=5 / scale-factor=0 / refine-intra=0 / refine-inter=0 / refine-mv=0 / no-limit-sao / ctu-info=0
Default : Yes
Forced : No
Color range : Limited
Color primaries : BT.709
Transfer characteristics : BT.709
Matrix coefficients : BT.709
Audio
ID : 2
Format : E-AC-3
Format/Info : Enhanced AC-3
Commercial name : Dolby Digital Plus
Codec ID : A_EAC3
Duration : 43 min 56 s
Bit rate mode : Constant
Bit rate : 640 kb/s
Channel(s) : 6 channels
Channel layout : L R C LFE Ls Rs
Sampling rate : 48.0 kHz
Frame rate : 31.250 FPS (1536 SPF)
Compression mode : Lossy
Stream size : 201 MiB (7%)
Language : English
Service kind : Complete Main
Default : Yes
Forced : No
Text
ID : 3
Format : UTF-8
Codec ID : S_TEXT/UTF8
Codec ID/Info : UTF-8 Plain Text
Duration : 43 min 5 s
Bit rate : 60 b/s
Count of elements : 674
Stream size : 18.9 KiB (0%)
Title : English (SDH)
Language : English
Default : No
Forced : No


请点击此处下载

请先注册会员后在进行下载

已注册会员,请先登录后下载

文件名称:亚博体育怎么下载appPrison.Break.S01-05.1080p.AMZN.WEBRip.DDP5.1.x265-SiGMA.zip?
下载次数:6??文件大小:601.35 KB? 售价:2亚博智能手机端app币 [记录]
下载权限: 不限?以上或 VIP会员 ? [购买VIP] ? [充值亚博智能手机端app币]



请点击此处下载

请先注册会员后在进行下载

已注册会员,请先登录后下载

文件名称:forum.php?
下载次数:0??文件大小:15.01 KB? 售价:2亚博智能手机端app币 [记录]
下载权限: 不限?以上或 VIP会员 ? [购买VIP] ? [充值亚博智能手机端app币]

0

主题

1

帖子

3

积分

注册会员

Rank: 1

积分
3
沙发
发表于 2019-7-29 19:31:40 | 只看该作者
很好很好很喜欢
您需要登录后才可以回帖 登录 | 立即注册

本版积分规则

Archiver|手机版|小黑屋| ?

GMT+8, 2019-8-20 16:23 , Processed in 0.065719 second(s), 43 queries .

Powered by Discuz! X3.3

? 2001-2017 Comsenz Inc.

快速回复 返回顶部 返回列表